+ ShareSpark.net »  :::: Bollywood Zone » Bollywood Movies (Original Rips) » TeamSSX Bollywood Releases
|- 102 Not Out 2018 480p WEBRip x264 Hindi YsB TeaM Fl & SSX


One Plus 6

102 Not Out 2018 480p WEBRip x264 Hindi YsB TeaM Fl & SSX

0 Members and 1 Guest are viewing this topic.

July 18, 2018, 09:19:04 PM
  • Admin
  • Legend Member
  • ****
  • Topic Author
  • Thank You: 655
  • Reputation: 641
  • Activity:
    1%
  • Country: cn
  • Posts: 2394
  • Topics: 521
  • Join Date: Dec 2011
  • ShareSpark Member
  • Expertises:
  • Bollywood Movies
  • PC Applications
  • PC Games
102 Not Out 2018 480p WEBRip x264 Hindi YsB TeaM Fl & SSX



:info:


Code: [Select]
General
Complete name               : 102 Not Out 2018 480p WEBRip x264 Hindi YsB TeaM Fl & SSX.mkv
Format                      : Matroska
Format version              : Version 4 / Version 2
File size                   : 383 MiB
Duration                    : 1 h 43 min
Overall bit rate            : 516 kb/s
Movie name                  : 102 Not Out 2018 480p WEBRip x264 Hindi YsB TeaM Fl & SSX
Encoded date                : UTC 2018-07-18 14:29:22
Writing application         : mkvmerge v8.1.0 ('Psychedelic Postcard') 64bit
Writing library             : libebml v1.3.1 + libmatroska v1.4.2

Video
ID                          : 1
Format                      : AVC
Format/Info                 : Advanced Video Codec
Format profile              : [email protected]
Format settings             : CABAC / 3 Ref Frames
Format settings, CABAC      : Yes
Format settings, ReFrames   : 3 frames
Codec ID                    : V_MPEG4/ISO/AVC
Duration                    : 1 h 43 min
Bit rate                    : 450 kb/s
Width                       : 848 pixels
Height                      : 352 pixels
Display aspect ratio        : 2.40:1
Frame rate mode             : Constant
Frame rate                  : 29.058 FPS
Color space                 : YUV
Chroma subsampling          : 4:2:0
Bit depth                   : 8 bits
Scan type                   : Progressive
Bits/(Pixel*Frame)          : 0.052
Stream size                 : 334 MiB (87%)
Title                       : YsB TeaM Fl

Audio
ID                          : 2
Format                      : AC-3
Format/Info                 : Audio Coding 3
Codec ID                    : A_AC3
Duration                    : 1 h 43 min
Bit rate mode               : Constant
Bit rate                    : 64.0 kb/s
Channel(s)                  : 2 channels
Channel positions           : Front: L R
Sampling rate               : 44.1 kHz
Frame rate                  : 28.711 FPS (1536 SPF)
Bit depth                   : 16 bits
Compression mode            : Lossy
Stream size                 : 47.4 MiB (12%)
Title                       : YsB TeaM Fl
Language                    : Hindi
Service kind                : Complete Main
Default                     : Yes
Forced                      : No

Text
ID                          : 3
Format                      : UTF-8
Codec ID                    : S_TEXT/UTF8
Codec ID/Info               : UTF-8 Plain Text
Duration                    : 1 h 33 min
Bit rate                    : 61 b/s
Count of elements           : 1369
Stream size                 : 42.5 KiB (0%)
Title                       : YsB TeaM Fl
Language                    : English
Default                     : Yes
Forced                      : No

:ss:







:download:









Torrent file attached.



Thanks.
TeaM FL , TeaM SSX, AnantaRdp



Share this topic on FacebookShare this topic on GoogleShare this topic on MySpaceShare this topic on TwitterShare this topic on Yahoo



Thanks given by:


July 19, 2018, 06:44:33 PM
Reply #1
  • Addic7ed
  • Legend Member
  • ****
  • Thank You: 84
  • Reputation: 41
  • Activity:
    37%
  • Posts: 1657
  • Topics: 133
  • Join Date: May 2012
  • ShareSpark Member

 

Related Topics

  Subject / Started by Replies Last post
1 Replies
630 Views
Last post January 29, 2018, 07:32:10 PM
by sagarsingha
1 Replies
1376 Views
Last post June 24, 2018, 09:16:51 AM
by honey01
3 Replies
1138 Views
Last post July 07, 2018, 03:57:50 PM
by JackRoSe
1 Replies
474 Views
Last post July 20, 2018, 04:50:29 PM
by honey01
0 Replies
2345 Views
Last post July 18, 2018, 10:01:38 PM
by Ðj sαм




Back to top