+ ShareSpark.net »  :::: Bollywood Zone » Bollywood Movies (Original Rips) » Small Size Bollywood Movies
|- Stree (2018) Hindi 720p WEB-HD AVC AAC ~Katyayan Exclusive


Amazon Pantry Offer

Stree (2018) Hindi 720p WEB-HD AVC AAC ~Katyayan Exclusive

0 Members and 1 Guest are viewing this topic.

November 18, 2018, 10:21:15 PM
  • Begginer
  • **
  • Topic Author
  • Thank You: 112
  • Reputation: 22
  • Activity:
    3.6%
  • Country: in
  • Posts: 96
  • Topics: 87
  • Join Date: Feb 2018
  • ShareSpark Member
Stree (2018) Hindi 720p WEB-HD AVC AAC ~Katyayan Exclusive



Source :- Own (1080p UntoucheD HS WEB-DL)

General
Format                                   : MPEG-4
Format profile                           : Base Media
Codec ID                                 : isom (isom/iso2/avc1/mp41)
File size                                : 1.06 GiB
Duration                                 : 2 h 7 min
Overall bit rate                         : 1 184 kb/s
Writing application                      : Lavf58.12.100

Video
ID                                       : 1
Format                                   : AVC
Format/Info                              : Advanced Video Codec
Format profile                           : [email protected]
Format settings                          : CABAC / 4 Ref Frames
Format settings, CABAC                   : Yes
Format settings, ReFrames                : 4 frames
Codec ID                                 : avc1
Codec ID/Info                            : Advanced Video Coding
Duration                                 : 2 h 7 min
Bit rate                                 : 1 117 kb/s
Width                                    : 1 280 pixels
Height                                   : 720 pixels
Display aspect ratio                     : 16:9
Frame rate mode                          : Constant
Frame rate                               : 25.000 FPS
Color space                              : YUV
Chroma subsampling                       : 4:2:0
Bit depth                                : 8 bits
Scan type                                : Progressive
Bits/(Pixel*Frame)                       : 0.048
Stream size                              : 1.00 GiB (95%)
Writing library                          : x264 core 148 r2643 5c65704
Encoding settings                        : cabac=1 / ref=1 / deblock=1:0:0 / analyse=0x3:0x3 / me=dia / subme=1 / psy=1 / psy_rd=1.00:0.00 / mixed_ref=0 / me_range=16 / chroma_me=1 / trellis=0 / 8x8dct=1 / cqm=0 / deadzone=21,11 / fast_pskip=1 / chroma_qp_offset=0 / threads=12 / lookahead_threads=2 / sliced_threads=0 / nr=0 / decimate=1 / interlaced=0 / bluray_compat=0 / constrained_intra=0 / bframes=3 / b_pyramid=2 / b_adapt=1 / b_bias=0 / direct=1 / weightb=1 / open_gop=0 / weightp=1 / keyint=250 / keyint_min=25 / scenecut=40 / intra_refresh=0 / rc=abr / mbtree=0 / bitrate=1117 / ratetol=1.0 / qcomp=0.60 / qpmin=0 / qpmax=69 / qpstep=4 / ip_ratio=1.40 / pb_ratio=1.30 / aq=1:1.00
Codec configuration box                  : avcC

Audio
ID                                       : 2
Format                                   : AAC LC
Format/Info                              : Advanced Audio Codec Low Complexity
Codec ID                                 : mp4a-40-2
Duration                                 : 2 h 7 min
Duration_LastFrame                       : -15 ms
Bit rate mode                            : Constant
Bit rate                                 : 56.0 kb/s
Channel(s)                               : 1 channel
Channel layout                           : C
Sampling rate                            : 44.1 kHz
Frame rate                               : 43.066 FPS (1024 SPF)
Compression mode                         : Lossy
Stream size                              : 51.2 MiB (5%)
Default                                  : Yes
Alternate group                          : 1







Share this topic on FacebookShare this topic on GoogleShare this topic on MySpaceShare this topic on TwitterShare this topic on Yahoo

« Last Edit: November 18, 2018, 10:46:46 PM by Katyayan »



November 18, 2018, 10:29:49 PM
Reply #1
  • Semi Newbie
  • **
  • Thank You: 48
  • Reputation: 12
  • Activity:
    0.4%
  • Country: in
  • Posts: 42
  • Topics: 23
  • Join Date: Dec 2013
  • ShareSpark Member

Tags:
 

Related Topics





Back to top