+ ShareSpark.net »  :::: Bollywood Zone » Bollywood Movies (Original Rips)
|- Mr Kabaadi 2017 x264 720p Esub Amazon Hindi [Shahzaib Shah]


Amazon Pantry Offer

Mr Kabaadi 2017 x264 720p Esub Amazon Hindi [Shahzaib Shah]

0 Members and 1 Guest are viewing this topic.

December 01, 2018, 03:55:12 PM
  • ***************
  • Conqueror
  • Legend Member
  • *****
  • Topic Author
  • Thank You: 1968
  • Reputation: 566
  • Activity:
    100%
  • Country: pk
  • Posts: 2183
  • Topics: 1461
  • Join Date: Mar 2015
  • =$ Success Never Ends $=
Mr Kabaadi 2017 x264 720p Esub Amazon Hindi [Shahzaib Shah]











Format : Matroska
Format version : Version 4 / Version 2
File size : 467 MiB
Duration : 1 h 33 min
Overall bit rate : 697 kb/s
Movie name : Mr Kabaadi 2018 GOPISAHI

Video
Format : AVC
Format/Info : Advanced Video Codec
Codec ID : V_MPEG4/ISO/AVC
Duration : 1 h 33 min
Bit rate : 599 kb/s
Width : 1 280 pixels
Height : 542 pixels
Display aspect ratio : 2.35:1
Frame rate mode : Constant
Frame rate : 25.000 FPS
Stream size : 401 MiB (86%)
Title : GOPISAHI
Writing library : x264 core 155 r2901 7d0ff22

Audio
Format : AAC
Duration : 1 h 33 min
Bit rate : 96.0 kb/s
Channel(s) : 2 channels
Channel positions : Front: L R
Sampling rate : 48.0 kHz
Frame rate : 46.875 FPS (1024 SPF)
Compression mode : Lossy
Delay relative to video : -21 ms
Stream size : 64.1 MiB (14%)
Title : GOPISAHI
Language : Hindi

Text
Language : English





 :ss:













 :download:




























Share this topic on FacebookShare this topic on GoogleShare this topic on MySpaceShare this topic on TwitterShare this topic on Yahoo




Tags:
 

Related Topics





Back to top