+ ShareSpark.net »  :::: Bollywood Zone » Bollywood Movies (Original Rips)
|- TUMBBAD (2018) HINDI 720P WEB-RIP X264 AAC 5.1 - ESUB ~ RANVIJAY


TV and Appliances

TUMBBAD (2018) HINDI 720P WEB-RIP X264 AAC 5.1 - ESUB ~ RANVIJAY

0 Members and 1 Guest are viewing this topic.

December 01, 2018, 08:04:21 PM
  • *****************
  • Head Admin
  • Legend Member
  • *****
  • Topic Author
  • Thank You: 6878
  • Reputation: 2993
  • Activity:
    86.8%
  • Country: in
  • Posts: 19037
  • Topics: 11071
  • Join Date: Mar 2012
  • The Time Is Now......





Source                                   : Team Telly
Format                                   : Matroska
Format version                           : Version 4 / Version 2
File size                                : 1.26 GiB
Duration                                 : 1 h 44 min
Overall bit rate                         : 1 725 kb/s
Movie name                               : Tumbbad (2018) Hindi 720p WEB-Rip x264 AAC 5.1 - ESUB ~ Ranvijay

Video
ID                                       : 1
Format                                   : AVC
Format/Info                              : Advanced Video Codec
Duration                                 : 1 h 44 min
Bit rate                                 : 1 500 kb/s
Width                                    : 1 280 pixels
Height                                   : 544 pixels
Display aspect ratio                     : 2.35:1
Frame rate mode                          : Constant
Frame rate                               : 24.000 FPS
Color space                              : YUV
Chroma subsampling                       : 4:2:0
Bit depth                                : 8 bits
Scan type                                : Progressive
Bits/(Pixel*Frame)                       : 0.090
Stream size                              : 1.10 GiB (87%)
Title                                    : ~Ranvijay~

Audio
ID                                       : 2
Format                                   : AAC
Format/Info                              : Advanced Audio Codec
Format profile                           : LC
Codec ID                                 : A_AAC-2
Duration                                 : 1 h 44 min
Bit rate                                 : 224 kb/s
Channel(s)                               : 6 channels
Channel positions                        : Front: L C R, Side: L R, LFE
Sampling rate                            : 48.0 kHz
Frame rate                               : 46.875 FPS (1024 SPF)
Compression mode                         : Lossy
Delay relative to video                  : 9 ms
Stream size                              : 168 MiB (13%)
Title                                    : ~Ranvijay~
Language                                 : Hindi
Default                                  : Yes
Forced                                   : Yes

Text
ID                                       : 3
Format                                   : UTF-8
Codec ID                                 : S_TEXT/UTF8
Codec ID/Info                            : UTF-8 Plain Text
Duration                                 : 1 h 35 min
Bit rate                                 : 27 b/s
Count of elements                        : 711
Stream size                              : 19.5 KiB (0%)
Title                                    : English [SDH]
Language                                 : English
Default                                  : Yes
Forced                                   : Yes

Menu
00:00:00.000                             : en:Studio Logo
00:01:19.000                             : en:Title Sequence
00:01:25.000                             : en:Scene 3
00:13:36.000                             : en:Scene 4
00:28:09.000                             : en:Scene 5
00:40:13.000                             : en:Scene 6
00:59:01.000                             : en:Scene 7
01:04:26.000                             : en:Scene 8
01:13:54.000                             : en:Scene 9
01:33:52.000                             : en:Scene 10
01:38:23.000                             : en:End Credits











































Share this topic on FacebookShare this topic on GoogleShare this topic on MySpaceShare this topic on TwitterShare this topic on Yahoo



Thanks given by:


Tags:
 

Related Topics





Back to top