+ ShareSpark.net »  :::: Bollywood Zone » Bollywood Movies (Original Rips)
|- Loveyatri (2018) Hindi 720p WEB-Rip x264 AAC 5.1 - ESUB ~ Ranvijay


Amazon Pantry Offer

Loveyatri (2018) Hindi 720p WEB-Rip x264 AAC 5.1 - ESUB ~ Ranvijay

0 Members and 1 Guest are viewing this topic.

December 01, 2018, 08:05:58 PM
  • *****************
  • Head Admin
  • Legend Member
  • *****
  • Topic Author
  • Thank You: 6901
  • Reputation: 2992
  • Activity:
    86.8%
  • Country: in
  • Posts: 19037
  • Topics: 11071
  • Join Date: Mar 2012
  • The Time Is Now......



Source                                   : Team Telly
Format                                   : Matroska
Format version                           : Version 4 / Version 2
File size                                : 1.46 GiB
Duration                                 : 2 h 12 min
Overall bit rate                         : 1 576 kb/s
Movie name                               : Loveyatri (2018) Hindi 720p WEB-Rip x264 AAC 5.1 - ESUB ~ Ranvijay

Video
ID                                       : 1
Format                                   : AVC
Format/Info                              : Advanced Video Codec
Format profile                           : [email protected]
Duration                                 : 2 h 12 min
Bit rate                                 : 1 350 kb/s
Width                                    : 1 280 pixels
Height                                   : 536 pixels
Display aspect ratio                     : 2.40:1
Frame rate mode                          : Constant
Frame rate                               : 24.000 FPS
Color space                              : YUV
Chroma subsampling                       : 4:2:0
Bit depth                                : 8 bits
Scan type                                : Progressive
Bits/(Pixel*Frame)                       : 0.082
Stream size                              : 1.25 GiB (86%)
Title                                    : ~Ranvijay~

Audio
ID                                       : 2
Format                                   : AAC
Format/Info                              : Advanced Audio Codec
Format profile                           : LC
Codec ID                                 : A_AAC-2
Duration                                 : 2 h 12 min
Bit rate                                 : 224 kb/s
Channel(s)                               : 6 channels
Channel positions                        : Front: L C R, Side: L R, LFE
Sampling rate                            : 48.0 kHz
Frame rate                               : 46.875 FPS (1024 SPF)
Compression mode                         : Lossy
Delay relative to video                  : 9 ms
Stream size                              : 213 MiB (14%)
Title                                    : ~Ranvijay~
Language                                 : Hindi
Default                                  : Yes
Forced                                   : Yes

Text
ID                                       : 3
Format                                   : UTF-8
Codec ID                                 : S_TEXT/UTF8
Codec ID/Info                            : UTF-8 Plain Text
Duration                                 : 2 h 11 min
Bit rate                                 : 56 b/s
Count of elements                        : 1947
Stream size                              : 54.1 KiB (0%)
Title                                    : ~Ranvijay~
Language                                 : English
Default                                  : No
Forced                                   : No

Menu
00:00:00.000                             : en:Disclaimer
00:00:40.000                             : en:Studio Logo
00:01:18.000                             : en:Title Sequence
00:01:32.000                             : en:Scene 4
00:14:11.000                             : en:Scene 5
00:28:32.000                             : en:Scene 6
00:45:18.000                             : en:Scene 7
01:02:16.000                             : en:Scene 8
01:11:35.000                             : en:Scene 9
01:15:19.000                             : en:Scene 10
01:27:33.000                             : en:Scene 11
01:42:36.000                             : en:Scene 12
01:52:03.000                             : en:Scene 13
02:00:03.000                             : en:Scene 14
02:08:52.000                             : en:Scene 15
02:09:45.000                             : en:End Credits






































Share this topic on FacebookShare this topic on GoogleShare this topic on MySpaceShare this topic on TwitterShare this topic on Yahoo



Thanks given by:


Tags:
 

Related Topics





Back to top