+ ShareSpark.net »  :::: Bollywood Zone » Bollywood Movies (Original Rips)
|- HAVA ANEY DEY (2004) 396P AMZN WEB-DL DDP 2.0 ESUB - DTONE


Electroncs Sale

HAVA ANEY DEY (2004) 396P AMZN WEB-DL DDP 2.0 ESUB - DTONE

0 Members and 1 Guest are viewing this topic.

December 01, 2018, 08:22:54 PM
  • *****************
  • Head Admin
  • Legend Member
  • *****
  • Topic Author
  • Thank You: 6914
  • Reputation: 2993
  • Activity:
    63.2%
  • Country: in
  • Posts: 19037
  • Topics: 11071
  • Join Date: Mar 2012
  • The Time Is Now......


General
Complete name                            : Hava Aney Dey (2004) 396p AMZN WEB-DL DDP 2.0 ESub - DTOne.mkv
Format                                   : Matroska
Format version                           : Version 4 / Version 2
File size                                : 640 MiB
Duration                                 : 1 h 32 min
Overall bit rate mode                    : Variable
Overall bit rate                         : 968 kb/s
Encoded date                             : UTC 2018-11-28 04:31:38
Writing application                      : mkvmerge v28.2.0 ('The Awakening') 64-bit
Writing library                          : libebml v1.3.6 + libmatroska v1.4.9

Video
ID                                       : 1
Format                                   : AVC
Format/Info                              : Advanced Video Codec
Format profile                           : [email protected]
Format settings                          : CABAC / 5 Ref Frames
Format settings, CABAC                   : Yes
Format settings, RefFrames               : 5 frames
Codec ID                                 : V_MPEG4/ISO/AVC
Duration                                 : 1 h 32 min
Bit rate mode                            : Variable
Bit rate                                 : 742 kb/s
Maximum bit rate                         : 1 800 kb/s
Width                                    : 704 pixels
Height                                   : 396 pixels
Display aspect ratio                     : 16:9
Frame rate mode                          : Constant
Frame rate                               : 29.970 (30000/1001) FPS
Color space                              : YUV
Chroma subsampling                       : 4:2:0
Bit depth                                : 8 bits
Scan type                                : Progressive
Bits/(Pixel*Frame)                       : 0.089
Stream size                              : 491 MiB (77%)
Writing library                          : x264 core 148 r2623 d5b2374
Default                                  : Yes
Forced                                   : No
Color range                              : Limited
Color primaries                          : BT.709
Transfer characteristics                 : BT.709
Matrix coefficients                      : BT.709

Audio
ID                                       : 2
Format                                   : E-AC-3
Format/Info                              : Enhanced Audio Coding 3
Codec ID                                 : A_EAC3
Duration                                 : 1 h 32 min
Bit rate mode                            : Constant
Bit rate                                 : 224 kb/s
Channel(s)                               : 2 channels
Channel positions                        : Front: L R
Sampling rate                            : 48.0 kHz
Frame rate                               : 187.500 FPS (256 SPF)
Compression mode                         : Lossy
Stream size                              : 148 MiB (23%)
Title                                    : English
Language                                 : English
Service kind                             : Complete Main
Default                                  : Yes
Forced                                   : No

Text
ID                                       : 3
Format                                   : UTF-8
Codec ID                                 : S_TEXT/UTF8
Codec ID/Info                            : UTF-8 Plain Text
Duration                                 : 1 h 28 min
Bit rate                                 : 2 b/s
Count of elements                        : 85
Stream size                              : 1.44 KiB (0%)
Title                                    : English [Full]
Language                                 : English
Default                                  : Yes
Forced                                   : No




























   

Share this topic on FacebookShare this topic on GoogleShare this topic on MySpaceShare this topic on TwitterShare this topic on Yahoo



Thanks given by:


December 02, 2018, 10:42:35 AM
Reply #1
  • Global Moderator
  • Legend Member
  • *****
  • Thank You: 11878
  • Reputation: 2413
  • Activity:
    100%
  • Country: in
  • Posts: 5643
  • Topics: 4626
  • Join Date: Jan 2014
  • ıllıllı ѕмoĸιng ιѕ good ғor нealтн ıllıllı :)
Nahi aane Dunga.
Sab Hawa Mein Khi Khaunga.

 :lol1: :lol1: :lol1: :lol1: :lol1: :lol1:  :rep: :thank:

Don't walk as you are king, walk as you don't care who the king is....!!

December 25, 2018, 04:54:51 AM
Reply #2
  • Semi Newbie
  • **
  • Thank You: 0
  • Reputation: 0
  • Activity:
    1.2%
  • Country: in
  • Posts: 15
  • Topics: 0
  • Join Date: Oct 2014
  • ShareSpark Member
link deAD.. update it and upload in google drive please

Tags:
 

Related Topics

  Subject / Started by Replies Last post
2 Replies
1970 Views
Last post August 12, 2013, 01:57:25 PM
by wepatel
0 Replies
119 Views
Last post November 30, 2018, 07:21:38 AM
by -Ð@Rk.ÐèVi£-
0 Replies
142 Views
Last post November 30, 2018, 07:28:14 AM
by -Ð@Rk.ÐèVi£-
0 Replies
156 Views
Last post December 24, 2018, 06:38:25 PM
by Special26
0 Replies
415 Views
Last post December 26, 2018, 12:36:25 PM
by shahzaibjaan




Back to top